PelisHD4K VIP

Multiples Textos Compartidos

Moonfall: Impacto lunar (2022) Full HD Mediainfo

Video
ID : 1
Format : AVC
Format/Info : Advanced Video Codec
Format profile : High@L4.1
Format settings : CABAC / 4 Ref Frames
Format settings, CABAC : Yes
Format settings, Reference frames : 4 frames
Codec ID : V_MPEG4/ISO/AVC
Duration : 2 h 10 min
Bit rate : 4 200 kb/s
Width : 1 920 pixels
Height : 1 080 pixels
Display aspect ratio : 16:9
Frame rate mode : Constant
Frame rate : 23.976 (24000/1001) FPS
Color space : YUV
Chroma subsampling : 4:2:0
Bit depth : 8 bits
Scan type : Progressive
Bits/(Pixel*Frame) : 0.084
Stream size : 3.81 GiB (76%)
Title : pelishd4k.com
Writing library : x264 core 157 r2935 545de2f
Encoding settings : cabac=1 / ref=4 / deblock=1:-1:-1 / analyse=0x3:0x133 / me=umh / subme=10 / psy=1 /
psy_rd=1.00:0.15 / mixed_ref=1 / me_range=24 / chroma_me=1 / trellis=2 / 8x8dct=1 / cqm=0 / deadzone=21,11 / fast_pskip=1 /
chroma_qp_offset=-3 / threads=12 / lookahead_threads=2 / sliced_threads=0 / nr=0 / decimate=1 / interlaced=0 / bluray_compat=0 /
constrained_intra=0 / bframes=8 / b_pyramid=2 / b_adapt=2 / b_bias=0 / direct=3 / weightb=1 / open_gop=0 / weightp=2 / keyint=240 /
keyint_min=24 / scenecut=40 / intra_refresh=0 / rc_lookahead=60 / rc=2pass / mbtree=1 / bitrate=4200 / ratetol=1.0 / qcomp=0.60 /
qpmin=0 / qpmax=69 / qpstep=4 / cplxblur=20.0 / qblur=0.5 / vbv_maxrate=62500 / vbv_bufsize=78125 / nal_hrd=none / filler=0 /
ip_ratio=1.40 / aq=1:1.00
Default : Yes
Forced : No
Color range : Limited
Color primaries : BT.709
Transfer characteristics : BT.709
Matrix coefficients : BT.709

Audio #1
ID : 2
ID in the original source medium : 4355 (0x1103)
Format : AC-3
Format/Info : Audio Coding 3
Commercial name : Dolby Digital
Codec ID : A_AC3
Duration : 2 h 10 min
Bit rate mode : Constant
Bit rate : 640 kb/s
Channel(s) : 6 channels
Channel layout : L R C LFE Ls Rs
Sampling rate : 48.0 kHz
Frame rate : 31.250 FPS (1536 SPF)
Compression mode : Lossy
Stream size : 596 MiB (12%)
Title : Latino
Language : Spanish
Service kind : Complete Main
Default : Yes
Forced : No
Original source medium : Blu-ray

Audio #2
ID : 3
ID in the original source medium : 4352 (0x1100)
Format : AC-3
Format/Info : Audio Coding 3
Commercial name : Dolby Digital
Format settings : Dolby Surround EX
Codec ID : A_AC3
Duration : 2 h 10 min
Bit rate mode : Constant
Bit rate : 640 kb/s
Channel(s) : 6 channels
Channel layout : L R C LFE Ls Rs
Sampling rate : 48.0 kHz
Frame rate : 31.250 FPS (1536 SPF)
Compression mode : Lossy
Stream size : 596 MiB (12%)
Title : English
Language : English
Service kind : Complete Main
Default : No
Forced : No
Original source medium : Blu-ray

Text #1
ID : 4
Format : UTF-8
Codec ID : S_TEXT/UTF8
Codec ID/Info : UTF-8 Plain Text
Duration : 1 h 50 min
Bit rate : 1 b/s
Count of elements : 28
Stream size : 880 Bytes (0%)
Title : Latino Forzados
Language : Spanish
Default : No
Forced : Yes

Text #2
ID : 5
Format : UTF-8
Codec ID : S_TEXT/UTF8
Codec ID/Info : UTF-8 Plain Text
Duration : 2 h 0 min
Bit rate : 65 b/s
Count of elements : 1852
Stream size : 57.8 KiB (0%)
Title : Latino Completos
Language : Spanish
Default : No
Forced : No

Text #3
ID : 6
Format : UTF-8
Codec ID : S_TEXT/UTF8
Codec ID/Info : UTF-8 Plain Text
Duration : 2 h 0 min
Bit rate : 72 b/s
Count of elements : 2017
Stream size : 64.2 KiB (0%)
Title : English
Language : English
Default : No
Forced : No

Text #4
ID : 7
ID in the original source medium : 4609 (0x1201)
Format : PGS
Muxing mode : zlib
Codec ID : S_HDMV/PGS
Codec ID/Info : Picture based subtitle format used on BDs/HD-DVDs
Duration : 2 h 0 min
Bit rate : 32.1 kb/s
Count of elements : 3396
Stream size : 27.7 MiB (1%)
Title : Latino
Language : Spanish
Default : No
Forced : No
Original source medium : Blu-ray

Text #5
ID : 8
ID in the original source medium : 4608 (0x1200)
Format : PGS
Muxing mode : zlib
Codec ID : S_HDMV/PGS
Codec ID/Info : Picture based subtitle format used on BDs/HD-DVDs
Duration : 2 h 0 min
Bit rate : 42.1 kb/s
Count of elements : 4052
Stream size : 36.4 MiB (1%)
Title : English
Language : English
Default : No
Forced : No
Original source medium : Blu-ray

Menu #1
00:00:00.000 : :Chapter 1
00:05:58.108 : :Chapter 2
00:13:28.141 : :Chapter 3
00:21:14.565 : :Chapter 4
00:30:59.024 : :Chapter 5
00:38:36.981 : :Chapter 6
00:47:33.726 : :Chapter 7
00:55:51.849 : :Chapter 8
01:03:39.816 : :Chapter 9
01:10:14.711 : :Chapter 10
01:15:38.534 : :Chapter 11
01:22:37.453 : :Chapter 12
01:30:10.864 : :Chapter 13
01:35:47.784 : :Chapter 14
01:45:09.178 : :Chapter 15
01:56:22.976 : :Chapter 16

Menu #2
00:00:00.000 : en:Chapter 01
00:05:58.024 : en:Chapter 02
00:13:28.057 : en:Chapter 03
00:21:14.564 : en:Chapter 04
00:30:58.940 : en:Chapter 05
00:38:36.856 : en:Chapter 06
00:47:33.725 : en:Chapter 07
00:55:51.848 : en:Chapter 08
01:03:39.816 : en:Chapter 09
01:10:14.710 : en:Chapter 10
01:15:38.534 : en:Chapter 11
01:22:37.369 : en:Chapter 12
01:30:10.863 : en:Chapter 13
01:35:47.783 : en:Chapter 14
01:45:09.177 : en:Chapter 15
01:56:22.976 : en:Chapter 16

Video
ID : 1
Format : AVC
Format/Info : Advanced Video Codec
Format profile : High@L4.1
Format settings : CABAC / 4 Ref Frames
Format settings, CABAC : Yes
Format settings, Reference frames : 4 frames
Codec ID : V_MPEG4/ISO/AVC
Duration : 2 h 10 min
Bit rate : 9 500 kb/s
Width : 1 920 pixels
Height : 1 080 pixels
Display aspect ratio : 16:9
Frame rate mode : Constant
Frame rate : 23.976 (24000/1001) FPS
Color space : YUV
Chroma subsampling : 4:2:0
Bit depth : 8 bits
Scan type : Progressive
Bits/(Pixel*Frame) : 0.191
Stream size : 8.63 GiB (77%)
Title : pelishd4k.com
Writing library : x264 core 157 r2935 545de2f
Encoding settings : cabac=1 / ref=4 / deblock=1:-1:-1 / analyse=0x3:0x133 / me=umh / subme=10 / psy=1 /
psy_rd=1.00:0.15 / mixed_ref=1 / me_range=24 / chroma_me=1 / trellis=2 / 8x8dct=1 / cqm=0 / deadzone=21,11 / fast_pskip=1 /
chroma_qp_offset=-3 / threads=12 / lookahead_threads=2 / sliced_threads=0 / nr=0 / decimate=1 / interlaced=0 / bluray_compat=0 /
constrained_intra=0 / bframes=8 / b_pyramid=2 / b_adapt=2 / b_bias=0 / direct=3 / weightb=1 / open_gop=0 / weightp=2 / keyint=240 /
keyint_min=24 / scenecut=40 / intra_refresh=0 / rc_lookahead=60 / rc=2pass / mbtree=1 / bitrate=9500 / ratetol=1.0 / qcomp=0.60 /
qpmin=0 / qpmax=69 / qpstep=4 / cplxblur=20.0 / qblur=0.5 / vbv_maxrate=62500 / vbv_bufsize=78125 / nal_hrd=none / filler=0 /
ip_ratio=1.40 / aq=1:1.00
Default : Yes
Forced : No
Color range : Limited
Color primaries : BT.709
Transfer characteristics : BT.709
Matrix coefficients : BT.709

Audio #1
ID : 2
ID in the original source medium : 4355 (0x1103)
Format : AC-3
Format/Info : Audio Coding 3
Commercial name : Dolby Digital
Codec ID : A_AC3
Duration : 2 h 10 min
Bit rate mode : Constant
Bit rate : 640 kb/s
Channel(s) : 6 channels
Channel layout : L R C LFE Ls Rs
Sampling rate : 48.0 kHz
Frame rate : 31.250 FPS (1536 SPF)
Compression mode : Lossy
Stream size : 596 MiB (5%)
Title : Latino
Language : Spanish
Service kind : Complete Main
Default : Yes
Forced : No
Original source medium : Blu-ray

Audio #2
ID : 3
ID in the original source medium : 4352 (0x1100)
Format : AC-3
Format/Info : Audio Coding 3
Commercial name : Dolby Digital
Format settings : Dolby Surround EX
Codec ID : A_AC3
Duration : 2 h 10 min
Bit rate mode : Constant
Bit rate : 640 kb/s
Channel(s) : 6 channels
Channel layout : L R C LFE Ls Rs
Sampling rate : 48.0 kHz
Frame rate : 31.250 FPS (1536 SPF)
Compression mode : Lossy
Stream size : 596 MiB (5%)
Title : English
Language : English
Service kind : Complete Main
Default : No
Forced : No
Original source medium : Blu-ray

Audio #3
ID : 4
Format : DTS
Format/Info : Digital Theater Systems
Codec ID : A_DTS
Duration : 2 h 10 min
Bit rate mode : Constant
Bit rate : 1 509 kb/s
Channel(s) : 6 channels
Channel layout : C L R Ls Rs LFE
Sampling rate : 48.0 kHz
Frame rate : 93.750 FPS (512 SPF)
Bit depth : 24 bits
Compression mode : Lossy
Stream size : 1.37 GiB (12%)
Title : English DTS
Language : English
Default : No
Forced : No

Text #1
ID : 5
Format : UTF-8
Codec ID : S_TEXT/UTF8
Codec ID/Info : UTF-8 Plain Text
Duration : 1 h 50 min
Bit rate : 1 b/s
Count of elements : 28
Stream size : 880 Bytes (0%)
Title : Latino Forzados
Language : Spanish
Default : Yes
Forced : Yes

Text #2
ID : 6
Format : UTF-8
Codec ID : S_TEXT/UTF8
Codec ID/Info : UTF-8 Plain Text
Duration : 2 h 0 min
Bit rate : 65 b/s
Count of elements : 1852
Stream size : 57.8 KiB (0%)
Title : Latino Completos
Language : Spanish
Default : No
Forced : No

Text #3
ID : 7
Format : UTF-8
Codec ID : S_TEXT/UTF8
Codec ID/Info : UTF-8 Plain Text
Duration : 2 h 0 min
Bit rate : 72 b/s
Count of elements : 2017
Stream size : 64.2 KiB (0%)
Title : English
Language : English
Default : No
Forced : No

Text #4
ID : 8
ID in the original source medium : 4609 (0x1201)
Format : PGS
Muxing mode : zlib
Codec ID : S_HDMV/PGS
Codec ID/Info : Picture based subtitle format used on BDs/HD-DVDs
Duration : 2 h 0 min
Bit rate : 32.1 kb/s
Count of elements : 3396
Stream size : 27.7 MiB (0%)
Title : Latino
Language : Spanish
Default : No
Forced : No
Original source medium : Blu-ray

Text #5
ID : 9
ID in the original source medium : 4608 (0x1200)
Format : PGS
Muxing mode : zlib
Codec ID : S_HDMV/PGS
Codec ID/Info : Picture based subtitle format used on BDs/HD-DVDs
Duration : 2 h 0 min
Bit rate : 42.1 kb/s
Count of elements : 4052
Stream size : 36.4 MiB (0%)
Title : English
Language : English
Default : No
Forced : No
Original source medium : Blu-ray

Menu #1
00:00:00.000 : :Chapter 1
00:05:58.108 : :Chapter 2
00:13:28.141 : :Chapter 3
00:21:14.565 : :Chapter 4
00:30:59.024 : :Chapter 5
00:38:36.981 : :Chapter 6
00:47:33.726 : :Chapter 7
00:55:51.849 : :Chapter 8
01:03:39.816 : :Chapter 9
01:10:14.711 : :Chapter 10
01:15:38.534 : :Chapter 11
01:22:37.453 : :Chapter 12
01:30:10.864 : :Chapter 13
01:35:47.784 : :Chapter 14
01:45:09.178 : :Chapter 15
01:56:22.976 : :Chapter 16

Menu #2
00:00:00.000 : en:Chapter 01
00:05:58.024 : en:Chapter 02
00:13:28.057 : en:Chapter 03
00:21:14.564 : en:Chapter 04
00:30:58.940 : en:Chapter 05
00:38:36.856 : en:Chapter 06
00:47:33.725 : en:Chapter 07
00:55:51.848 : en:Chapter 08
01:03:39.816 : en:Chapter 09
01:10:14.710 : en:Chapter 10
01:15:38.534 : en:Chapter 11
01:22:37.369 : en:Chapter 12
01:30:10.863 : en:Chapter 13
01:35:47.783 : en:Chapter 14
01:45:09.177 : en:Chapter 15
01:56:22.976 : en:Chapter 16


Reportar Error Visitas: 63