VIP Pelishd4k

MĂșltiples textos compartidos

Aguas siniestras (2024) 4K Dolby Visión HDR Latino Mediainfo


Video
ID : 1
Format : HEVC
Format/Info : High Efficiency Video Coding
Format profile : Main 10@L5@High
HDR format : Dolby Vision, Version 1.0, dvhe.08.06, BL+RPU, HDR10 compatible / SMPTE ST 2094 App 4, Version 1, HDR10+ Profile B compatible
Codec ID : V_MPEGH/ISO/HEVC
Duration : 1 h 38 min
Bit rate : 24.4 Mb/s
Width : 3 832 pixels
Height : 1 600 pixels
Display aspect ratio : 2.40:1
Frame rate mode : Constant
Frame rate : 23.976 (24000/1001) FPS
Original frame rate : 23.976 (23976/1000) FPS
Color space : YUV
Chroma subsampling : 4:2:0 (Type 2)
Bit depth : 10 bits
Bits/(Pixel*Frame) : 0.166
Stream size : 16.8 GiB (95%)
Language : English (US)
Default : Yes
Forced : No
Color range : Limited
Color primaries : BT.2020
Transfer characteristics : PQ
Matrix coefficients : BT.2020 non-constant
Mastering display color primaries : BT.2020
Mastering display luminance : min: 0.0050 cd/m2, max: 1000 cd/m2
Maximum Content Light Level : 1261 cd/m2
Maximum Frame-Average Light Level : 122 cd/m2

Audio #1
ID : 2
Format : AC-3
Format/Info : Audio Coding 3
Commercial name : Dolby Digital
Codec ID : A_AC3
Duration : 1 h 38 min
Bit rate mode : Constant
Bit rate : 384 kb/s
Channel(s) : 6 channels
Channel layout : L R C LFE Ls Rs
Sampling rate : 48.0 kHz
Frame rate : 31.250 FPS (1536 SPF)
Compression mode : Lossy
Delay relative to video : 1 s 31 ms
Stream size : 270 MiB (1%)
Title : Latino
Language : Spanish (Latin America)
Service kind : Complete Main
Default : Yes
Forced : Yes

Audio #2
ID : 3
Format : E-AC-3 JOC
Format/Info : Enhanced AC-3 with Joint Object Coding
Commercial name : Dolby Digital Plus with Dolby Atmos
Codec ID : A_EAC3
Duration : 1 h 38 min
Bit rate mode : Constant
Bit rate : 768 kb/s
Channel(s) : 6 channels
Channel layout : L R C LFE Ls Rs
Sampling rate : 48.0 kHz
Frame rate : 31.250 FPS (1536 SPF)
Compression mode : Lossy
Stream size : 540 MiB (3%)
Title : Inglés E-AC3 5.1
Language : English (US)
Service kind : Complete Main
Default : Yes
Forced : No
Complexity index : 16
Number of dynamic objects : 15
Bed channel count : 1 channel
Bed channel configuration : LFE

Text #1
ID : 4
Format : UTF-8
Codec ID : S_TEXT/UTF8
Codec ID/Info : UTF-8 Plain Text
Duration : 1 h 28 min
Bit rate : 44 b/s
Frame rate : 0.186 FPS
Count of elements : 987
Stream size : 29.0 KiB (0%)
Title : Latin American
Language : Spanish (Latin America)
Default : No
Forced : No

Text #2
ID : 5
Format : UTF-8
Codec ID : S_TEXT/UTF8
Codec ID/Info : UTF-8 Plain Text
Duration : 1 h 28 min
Bit rate : 0 b/s
Frame rate : 0.001 FPS
Count of elements : 3
Stream size : 43.0 Bytes (0%)
Title : Forzados
Language : Spanish (Latin America)
Default : No
Forced : Yes

Text #3
ID : 6
Format : UTF-8
Codec ID : S_TEXT/UTF8
Codec ID/Info : UTF-8 Plain Text
Duration : 1 h 29 min
Bit rate : 51 b/s
Frame rate : 0.223 FPS
Count of elements : 1191
Stream size : 33.6 KiB (0%)
Title : English
Language : English
Default : No
Forced : No

Menu
00:00:00.000 : en:Chapter 01
00:05:59.609 : en:Chapter 02
00:11:54.923 : en:Chapter 03
00:15:48.365 : en:Chapter 04
00:20:34.401 : en:Chapter 05
00:25:23.523 : en:Chapter 06
00:28:42.847 : en:Chapter 07
00:31:47.699 : en:Chapter 08
00:37:04.933 : en:Chapter 09
00:42:48.860 : en:Chapter 10
00:48:10.598 : en:Chapter 11
00:53:50.647 : en:Chapter 12
00:58:20.917 : en:Chapter 13
01:01:29.773 : en:Chapter 14
01:04:43.341 : en:Chapter 15
01:12:37.732 : en:Chapter 16
01:17:06.251 : en:Chapter 17
01:22:43.213 : en:Chapter 18
01:27:17.946 : en:Chapter 19
01:29:25.198 : en:Chapter 20